• This site uses cookies. By continuing to use this site, you are agreeing to our use of cookies. Learn more.

transcoding

  1. Deebs

    MG 1.1 Transcoding query

    Hi, I have a video file encoded as follows: Stream #0:0: Video: h264 (High) (H264 / 0x34363248), yuv420p, 1280x720 [SAR 1:1 DAR 16:9], 3020 kb/s, 63.83 fps, 63.83 tbr, 63.83 tbn, 127.66 tbc Stream #0:1: Audio: aac (LC) ([255][0][0][0] / 0x00FF), 48000 Hz, stereo, fltp, 128 kb/s My...
  2. Bugfix

    Lack of interest Transcode uploaded videos on a second server

    Hello! We are running a very big XF-Installation and want to enable Video Uploading soon. Due to our use case we expect a very high usage of uploading (and the necessity of transcoding) and we want to run the transcoding on a second server to not affect our main web & db-server. I already saw...
  3. N

    Add-on External Transcoding and Streaming for XMG 1.1 Video Upload

    For video upload on big sites this is essential. Are other people interested in this? I'd love to have an addon for this. External Transcoding: for example www.pandastream.com or (own) external server.